Jump to content

daze

Members
  • Content Count

    146
  • Joined

  • Last visited

Community Reputation

7 Neutral

1 Follower

About daze

  • Rank
    Advanced Member

Converted

  • Gender
    Undisclosed

Recent Profile Visitors

The recent visitors block is disabled and is not being shown to other users.

  1. You can grab it here, in source form. If you need a compiled binary. I haven't supplied one as there has been next to no interest in this (other than for my own purposes)... PM me if you aren't able to compile it https://github.com/d4z3x/dirRenamer Please read the instructions on GitHub on how to get and use the API. I'll be interested in feedback.
  2. Hi guys, I can't seem to add any VLANs via Network Settings (Array is stopped). I can add the entires, but the Apply button is greyed out, and clicking on Done does nothing. I couldn't seem to find anything on this. Any ideas?
  3. It's active in that only I use it, it's not fancy etc. Other than yourself, I didn't get any interest in developing it for more than what I needed it to do. It is super fast, and very portable. The way it works is that it grabs a list of current directories. Tried to sanitize the directory names as best as it can, and then queries a movie db online (via an API). And renames just the directory to "Movie Name (Year)". If you're still interested I can clean it up a little, and include some instructions. It's written in Go; I'm not making the code open source at this time.
  4. The splunk instance takes the logs, and stores in appdata on the cache drive. I could careless if I lost the logs, but useful to have sometimes in troubleshooting things.
  5. I did run AFP on the Raspberry PI, an actual Airport Extreme AC with an external USB disk, etc. I am now running on SMB in Unraid. I did the first backup using Ethernet, so let's see if/when I get the corruption message. AFP is currently supported, though maybe not officially, and it does work for now. I switched to SMB because in the future, AFP may be yanked out altogether. Though it would invalidate a lot existing official gear from the manufacturer.
  6. I've used my Raspberry Pi 3/nVidia Jetson Nano/Apple Extreme with a TM USB disk... All work fine for exactly a week, then I get an error telling me that to improve reliability, it has to do a brand new backup. Backups are going via wireless which never were an issue until this version of macOS Mojave. I've somehow managed to get TM working on the unRaid box, so let's see how it does. If anyone's interested, feel free to ping me.
  7. Yes, and I changed it after you asked and it started! Thanks!!!
  8. Just installed radarr. It keeps complaining though I've cleared out the appdata/radarr folder many times and restart this thing... [v0.2.0.980] NzbDrone.Core.Datastore.CorruptDatabaseException: Database file: /config/nzbdrone.db is corrupt, restore from backup if available. See: https://github.com/Radarr/Radarr/wiki/FAQ#i-am-getting-an-error-database-disk-image-is-malformed ---> System.Data.SQLite.SQLiteException: disk I/O error disk I/O error Any hints would be appreciated.
  9. kenji, I was able to create a switch port to have multiple tagged VLANs. All fine. Dockers run fine in the new subnet, but can't access the host IP space for older containers that I couldn't switch over yet (by re-doing them, some are home grown)... Would a secondary NIC be a work around to this? Since it would be bound to eth1, and ingress through the switch to the server?
  10. H265ize is still providing the same error: [h265ize]: [alert] The following videos (1) were not encoded: - /mnt/user/h265ize/input/[redacted].mkv: ffmpeg exited with code 1: Could not write header for output file #0 (incorrect codec parameters ?): Invalid argument This is the mediainfo on the input file: Video ID : 1 Format : AVC Format/Info : Advanced Video Codec Format profile : High@L4.1 Format settings : CABAC / 5 Ref Frames Format settings, CABAC : Yes Format settings, ReFrames : 5 frames Codec ID : V_MPEG4/ISO/AVC Duration : 39 min 29 s Bit rate : 3 487 kb/s Width : 1 280 pixels Height : 720 pixels Display aspect ratio : 16:9 Frame rate mode : Constant Frame rate : 59.940 (60000/1001) FPS Color space : YUV Chroma subsampling : 4:2:0 Bit depth : 8 bits Scan type : Progressive Bits/(Pixel*Frame) : 0.063 Stream size : 985 MiB (90%) Writing library : x264 core 157 r2935 545de2f Encoding settings : cabac=1 / ref=5 / deblock=1:0:0 / analyse=0x3:0x113 / me=hex / subme=8 / psy=1 / psy_rd=1.00:0.00 / mixed_ref=1 / me_range=16 / chroma_me=1 / trellis=2 / 8x8dct=1 / cqm=0 / deadzone=21,11 / fast_pskip=1 / chroma_qp_offset=-2 / threads=12 / lookahead_threads=2 / sliced_threads=0 / nr=0 / decimate=1 / interlaced=0 / bluray_compat=0 / constrained_intra=0 / bframes=3 / b_pyramid=2 / b_adapt=1 / b_bias=0 / direct=3 / weightb=1 / open_gop=0 / weightp=2 / keyint=250 / keyint_min=25 / scenecut=40 / intra_refresh=0 / rc_lookahead=50 / rc=crf / mbtree=1 / crf=18.0 / qcomp=0.60 / qpmin=0 / qpmax=69 / qpstep=4 / ip_ratio=1.40 / aq=1:1.00 Default : Yes Forced : No Audio ID : 2 Format : AC-3 Format/Info : Audio Coding 3 Codec ID : A_AC3 Duration : 39 min 29 s Bit rate mode : Constant Bit rate : 384 kb/s Channel(s) : 6 channels Channel positions : Front: L C R, Side: L R, LFE Sampling rate : 48.0 kHz Frame rate : 31.250 FPS (1536 SPF) Bit depth : 16 bits Compression mode : Lossy Stream size : 108 MiB (10%) Language : English Service kind : Complete Main Default : Yes Forced : No Text ID : 3 Format : UTF-8 Codec ID : S_TEXT/UTF8 Codec ID/Info : UTF-8 Plain Text Duration : 39 min 17 s Bit rate : 329 b/s Count of elements : 1318 Stream size : 94.8 KiB (0%) Language : English Default : No Forced : No It just seems to exit even if no files are found in input dir. Are you planning on fixing this?
  11. It may evolve into something more useful with a web UI. A kind of combination of... I won't jinx it yet. If anyone has any ideas, please PM me.
  12. Hey guys, I wrote a very simple utility in Go (compiled binary) that is super fast, and, for now, renames Movie directories. I made it for myself, as sometimes, I am not trying to do super surgery on directory names, but rather simple things which can be scripted to a large degree. It's not meant to be a fileBot replacement, but a mere side project that arose out of need. So if you have something like: "This is a Movie 2018 1080p" It will rename it to "This is a Movie (2018)". It runs in dry mode by default, and see if the output looks OK. If it does, then you add a flag: -dryrun=false to actually execute it. I can provide a link to it, if anyone is interested. But I will probably be working on it to make it smarter, like querying MovieDB APIs, doing a second pass to rename the file inside the directory to the same naming convention, etc... For now, it's simple, and dead easy to run. D.
  13. Here's how I have it set up. In my /boot/config/go file, I've added this to forward traffic to a docker listening on port 1514: /usr/bin/sed --in-place "s/^#\*\.\* \@\@/\*\.\* @localhost:514/" /etc/rsyslog.conf # Reload the rsyslog daemon /etc/rc.d/rc.rsyslogd reload You can run it by hand if you don't want to reboot your server (/config/boot/go executes after boot). That line forwards data to my local Splunk docker on UDP:1514. As a bonus, here's my docker-compose file for Splunk: version: '2' services: splunk: image: splunk/splunk:latest hostname: splunk environment: SPLUNK_START_ARGS: --accept-license --answer-yes SPLUNK_ENABLE_LISTEN: 9997 SPLUNK_ADD: tcp 1514 volumes: - /mnt/cache/appdata/splunk/etc:/opt/splunk/etc - /mnt/cache/appdata/splunk/var:/opt/splunk/var ports: - "8000:8000" # - "9997:9997" # - "8088:8088" # - "1514:1514" - "514:1514/udp" restart: always If you have Nerd tools installed, make sure docker-compose is there. Then you just bring it up by just running in the directory where you placed the docker-compose.yml file. docker-compose up -d You should still log in to Splunk on port 8000, and make sure you and see your data. If not, let us know. You can test if data is getting to Splunk by running this from any Linux/Mac/unRAID host, and then typing a line like, "Testing!" nc -u localhost 514 Hope that helps!
  14. daze

    Kubernetes (Docker)

    Anyone able to run Kubernetes on Unraid with a few VMs? I'm using kubespray and had some issues with provisioning them. One being Unraid getting stuck after I changed a value in the Advanced mode by editing memory directory in the XML. I'm using the latest Fedora 28 Workstation Server VMs. I may just bite the bullet and run this stuff on my laptop or a NUC that's doing nothing but has enough memory for a few nodes. If anyone is interested I can post as I make this journey. At work, we're going to go all Kubernetes so I need to learn this on my own fast.