harriedr

Members
  • Content Count

    20
  • Joined

  • Last visited

Community Reputation

0 Neutral

About harriedr

  • Rank
    Newbie

Converted

  • Gender
    Undisclosed
  1. Ok thank you for the dev on this and the quick response/community!
  2. Input #0, mov,mp4,m4a,3gp,3g2,mj2, from '/library/movies/12 Angry Men (1957)/12 Angry Men (1957).mp4': Metadata: major_brand : isom minor_version : 512 compatible_brands: isomiso2mp41 encoder : Lavf58.45.100 Duration: 01:36:21.86, start: 0.000000, bitrate: 2589 kb/s Stream #0:0(eng): Video: hevc (hev1 / 0x31766568), yuv420p(tv), 1808x1080 [SAR 1:1 DAR 226:135], 1944 kb/s, 23.98 fps, 23.98 tbr, 16k tbn, 23.98 tbc (default) Metadata: handler_name : VideoHandler Stream #0:1(eng): Audio: ac3 (ac-3 / 0x332D6361), 48000 Hz, mono, fltp, 640 kb/s
  3. Understood- and yes, it is converting, but I guess at what point would the GPU kick in? When the video is actually being encoded?
  4. I've moved over to staging - GPU is not working any thoughts?
  5. I'm having a lot of my tasks fail - only new downloads convert successfully and anything else in my library gets various errors...below is an example of one file. Any ideas, am I doing something wrong? [mov,mp4,m4a,3gp,3g2,mj2 @ 0x555e28618780] stream 0, missing mandatory atoms, broken header [mov,mp4,m4a,3gp,3g2,mj2 @ 0x555e28618780] Could not find codec parameters for stream 0 (Video: h264 (avc1 / 0x31637661), none, 1280x720): unspecified pixel format Consider increasing the value for the 'analyzeduration' and 'probesize' options Input #0, mov,mp4,m4a,3gp,3g2,mj2, from '/library/t
  6. I'm not the OP but I've had this issue too and the only thing that fixes it is rolling back to older versions
  7. Thanks for the breakdown. I did see the previous posts about the number of transcodes on GPU and agree with you it is more efficient with less. I'm not removing subtitles. tmp is going to cache on ssd. Docker is showing 50% to unmanic on docker tab. So final question, is there an easy way to schedule the start/stop of a docker. I think i remember seeing a script somewhere. Once again thanks for your help/patience on this!
  8. I dropped this to 2 and even 1 and it has same results
  9. I got a gpu the other day (P2000) it's working great. However, my cpu cores are still full throttle at 100% despite the p2000 chugging on the transcodes. I have set the settings to hevc_nvenc and no audio encoding. Any idea what is causing this, or is that normal behavior? I have pinned two cores for unmanic FYI
  10. Came here to second this. I rolled back and everything is working for me. Logs seemed fine - using IPVanish for what it’s worth
  11. It wasn't the indexers that weren't searching - the series was not updating. So in Sonarr it said there were only 6 seasons, when in reality there were 7. But like I said, I tracked down the issue which turned out to be the proxy settings, which somehow got turned on. Essentially, My server couldn't access the skyhook links for refreshing series info as well as scene mappings. TLRD: all is well now
  12. I'm having issues with Sonarr not adding the newest season of a show. Big Brother Canada just launched it's 7th season however Sonarr is only showing 6..any thoughts on how to get that 7th season add, or where that data is being pulled from? TheTVDB has the 7th season listed however nothing in my Sonarr. Edit: I'm noticing a mixture of RefreshSeries errors as well as SceneMapping errors Edit: Skyhook doesn't like me? But I can reach all those skyhook links fine from a desktop https://pastebin.com/raw/r2ngYCiF Final Edit- thanks for hearing me out- someh
  13. I downloaded my smart report (and attached) I just want to make sure what I am reading is correct- what do you wizards think (other than the drive runs hot :|)? Thanks in advance! WDC_WD80EFZX-68UW8N0_VJGP8VVX-20180707-2114 (sdg).txt