harriedr

Members
  • Posts

    29
  • Joined

  • Last visited

Converted

  • Gender
    Undisclosed

Recent Profile Visitors

The recent visitors block is disabled and is not being shown to other users.

harriedr's Achievements

Newbie

Newbie (1/14)

1

Reputation

  1. Bravo - this looks/feels amazing...as of right now it seems to have solved the issues I had before with the memory leaks or whatever was happening! Thanks as always for your dev on this!
  2. Also with the new gui updates, is there a way to see the file size difference?
  3. Not using any custom settings and based on my quick research I have no idea what yadif is, so I would think I'm not using it...
  4. I too keep getting these issues and it doesn't matter if I limit RAM or not - I'm just trying to figure out what is going on. I have had to completely stop running this docker because of the OOM and it periodically freezing/locking me out of my system. I've ran multiple test scenarios and this is the only docker I've been having this issues with and it started around my last post (Early July if I recall)...
  5. Do I need to move any data off of the cache drives before the reformat?
  6. Ok thanks for the speedy reply - running a memtest now - if that turns out fine do I go back to the drawing board?
  7. Checked on the server this morning and about 3 of my dockers had stopped running, I tried to start them and got 403 errors - so I went ahead and proceeded to delete my docker image and try to recreate it, but when I go to my docker tab it says "Docker Service failed to start." The weeks leading up to this I've had a few lock ups where I couldn't not get to the webgui - I've tried to run a memtest but it just hangs and never does anything- just says it is starting and stays on that screen... any help would be appreciated as I am running out of ideas tower-diagnostics-20210803-0933.zip
  8. I've updated to the latest version and I keep getting these kind of out of memory errors, and I was wondering why unmanic is the only culprit?
  9. I've been running very smoothly in unraid for a long time. I had updated the OS maybe 2-3 weeks ago and since I have had some issues (I'm not saying the update is causing it, but I wanted to mention it). I've attached a few docs to hopefully help diagnose the culprit. The only other things worth noting is one of my cache drives has been running hot off and on, so not sure if that is playing a role either... syslog tower-diagnostics-20210710-0929.zip
  10. Ok thank you for the dev on this and the quick response/community!
  11. Input #0, mov,mp4,m4a,3gp,3g2,mj2, from '/library/movies/12 Angry Men (1957)/12 Angry Men (1957).mp4': Metadata: major_brand : isom minor_version : 512 compatible_brands: isomiso2mp41 encoder : Lavf58.45.100 Duration: 01:36:21.86, start: 0.000000, bitrate: 2589 kb/s Stream #0:0(eng): Video: hevc (hev1 / 0x31766568), yuv420p(tv), 1808x1080 [SAR 1:1 DAR 226:135], 1944 kb/s, 23.98 fps, 23.98 tbr, 16k tbn, 23.98 tbc (default) Metadata: handler_name : VideoHandler Stream #0:1(eng): Audio: ac3 (ac-3 / 0x332D6361), 48000 Hz, mono, fltp, 640 kb/s (default) Metadata: handler_name : SoundHandler Side data: audio service type: main Stream mapping: Stream #0:0 -> #0:0 (copy) Stream #0:1 -> #0:1 (ac3 (native) -> aac (native)) Press [q] to stop, [?] for help Output #0, mp4, to '/tmp/unmanic/unmanic_file_conversion-1617037461.8777735/12 Angry Men (1957)-1617037461.8777893.mp4': Metadata: major_brand : isom minor_version : 512 compatible_brands: isomiso2mp41 encoder : Lavf58.45.100 Stream #0:0(eng): Video: hevc (hev1 / 0x31766568), yuv420p(tv), 1808x1080 [SAR 1:1 DAR 226:135], q=2-31, 1944 kb/s, 23.98 fps, 23.98 tbr, 16k tbn, 16k tbc (default) Metadata: handler_name : VideoHandler Stream #0:1(eng): Audio: aac (mp4a / 0x6134706D), 48000 Hz, mono, fltp, 69 kb/s (default) Metadata: handler_name : SoundHandler encoder : Lavc58.91.100 aac Side data: audio service type: main
  12. Understood- and yes, it is converting, but I guess at what point would the GPU kick in? When the video is actually being encoded?
  13. I've moved over to staging - GPU is not working any thoughts?
  14. I'm having a lot of my tasks fail - only new downloads convert successfully and anything else in my library gets various errors...below is an example of one file. Any ideas, am I doing something wrong? [mov,mp4,m4a,3gp,3g2,mj2 @ 0x555e28618780] stream 0, missing mandatory atoms, broken header [mov,mp4,m4a,3gp,3g2,mj2 @ 0x555e28618780] Could not find codec parameters for stream 0 (Video: h264 (avc1 / 0x31637661), none, 1280x720): unspecified pixel format Consider increasing the value for the 'analyzeduration' and 'probesize' options Input #0, mov,mp4,m4a,3gp,3g2,mj2, from '/library/tv/New Girl/Season 505/New Girl - S05E17 - Road Trip.mp4': Metadata: major_brand : isom minor_version : 1 compatible_brands: isomavc1 creation_time : 2016-04-29T20:58:52.000000Z Duration: 00:21:43.10, bitrate: 1561 kb/s Stream #0:0(und): Video: h264 (avc1 / 0x31637661), none, 1280x720, 23.98 fps, 90k tbr, 90k tbn, 180k tbc (default) Metadata: creation_time : 2016-04-29T20:58:52.000000Z Stream mapping: Stream #0:0 -> #0:0 (h264 (native) -> hevc (hevc_nvenc)) Press [q] to stop, [?] for help Cannot determine format of input stream 0:0 after EOF Error marking filters as finished Conversion failed!
  15. I'm not the OP but I've had this issue too and the only thing that fixes it is rolling back to older versions