jonfive

Members
  • Posts

    50
  • Joined

  • Last visited

Recent Profile Visitors

The recent visitors block is disabled and is not being shown to other users.

jonfive's Achievements

Rookie

Rookie (2/14)

0

Reputation

  1. trying to reproduce, but it seems like it's a one-off for some reason. I re-ran the whole folder once again and it didn't do this once and completed successfully
  2. that's awesome. I seem to have an issue with this particular set of avi's It processes very fast, looks like it completes and immediately gets grabbed by the worker again and continues to count up
  3. Are the default nvidia hevc settings in the plugin the same as the old version's defaults? I'd like to keep the quality consistent if at all possible
  4. Is it at all possible to add a "custom" library to watch? If i were to add another path in the docker config would i be able to select it within unmanic as an additional library - or would that have to be intended in the software to begin with?
  5. out of curiosity, take a look at the logs. Search for: audio streams (ac3) do not match For me, when it would fail to convert ac3 to aac, it would hammer the cpu continuously as it was just converting audio, failing and sending it back to the queue again. Perhaps yours was failing to convert ac3 as well? If so, disable audio transcoding for the time being. that's helped me.
  6. that was happening to me earlier in the thread. it was failing to convert ac3 to aac - if you look in your unmanic.log for the current file's audio streams (ac3) do not match the configured audio codec (aac or whatever you set it to) you'll see that those files just keep going through. I only got it to stop by disabling audio conversion until it's figured out. Not a huge deal though, once it's fixed i'll just re-enable it and let it run through the library again
  7. i've been just messing around with it. I completely removed/reinstalled unmanic (backed up the old unmanic appdata folder just incase you need something from it). Taking a closer look at the old logs previously sent, it kept cycling through trying to convert ac3 to aac, unsuccessfully i assume. Same file: 2021-01-29T18:59:39:DEBUG:Unmanic.FFMPEGHandle - [FORMATTED] - The current file's audio streams (ac3) do not match the configured audio codec (aac) 2021-01-29T19:01:06:DEBUG:Unmanic.FFMPEGHandle - [FORMATTED] - The current file's audio streams (ac3) do not match the configured audio codec (aac)
  8. unmanic.log sorry it's rather large from all the restarts to trigger a scan.
  9. as an update, swapping to mp4 output does the same thing - the file is run through again on every library refresh
  10. yeah, every time it does a library scan it runs the files again. Any logs i can provide to give more info?
  11. just to get a better understanding, just let them continuously cycle through? i'd like to avoid constantly writing to disk if at all possible Currently using a test folder seeing if maybe swapping containers to mp4, then back to mkv will eliminate the issue.
  12. hate to bug you about it, but i have a few that are still in that mkv/webm format that keep cycling through again - how can i get unmanic to just encode it to mkv?
  13. Actually, what it looks like is it's just flying over it without doing a whole lot of encoding if at all. Input #0, matroska,webm, from '/library/tv/An Idiot Abroad/Season 01/An Idiot Abroad - S01E07 - Peru Bluray-1080p.mkv': Metadata: ENCODER : Lavf58.45.100 Duration: 00:44:20.70, start: 0.000000, bitrate: 2109 kb/s Stream #0:0(eng): Video: hevc, yuv420p(tv), 1920x1080 [SAR 1:1 DAR 16:9], 25 fps, 25 tbr, 1k tbn, 25 tbc (default) Metadata: ENCODER : Lavc58.91.100 hevc_nvenc DURATION : 00:44:20.600000000 Stream #0:1: Audio: ac3, 48000 Hz, stereo, fltp, 192 kb/s (default) Metadata: DURATION : 00:44:20.704000000 Output #0, matroska, to '/tmp/unmanic/unmanic_file_conversion-1611874377.5367582/An Idiot Abroad - S01E07 - Peru Bluray-1080p-1611874377.5367887.mkv': Metadata: encoder : Lavf58.45.100 Stream #0:0(eng): Video: hevc, yuv420p(tv), 1920x1080 [SAR 1:1 DAR 16:9], q=2-31, 25 fps, 25 tbr, 1k tbn, 1k tbc (default) Metadata: ENCODER : Lavc58.91.100 hevc_nvenc DURATION : 00:44:20.600000000 Stream #0:1: Audio: ac3 ([0] [0][0] / 0x2000), 48000 Hz, stereo, fltp, 192 kb/s (default) Metadata: DURATION : 00:44:20.704000000 Stream mapping: Stream #0:0 -> #0:0 (copy) Stream #0:1 -> #0:1 (copy) Press [q] to stop, [?] for help frame= 419 fps=0.0 q=-1.0 size= 3840kB time=00:00:16.72 bitrate=1881.3kbits/s speed=30.5x frame= 1594 fps=1416 q=-1.0 size= 15872kB time=00:01:03.72 bitrate=2040.5kbits/s speed=56.6x frame= 2865 fps=1559 q=-1.0 size= 27904kB time=00:01:54.56 bitrate=1995.4kbits/s speed=62.3x frame= 4064 fps=1632 q=-1.0 size= 40704kB time=00:02:42.52 bitrate=2051.7kbits/s speed=65.3x frame= 5174 fps=1724 q=-1.0 size= 53248kB time=00:03:26.92 bitrate=2108.1kbits/s speed=68.9x frame= 6387 fps=1790 q=-1.0 size= 65792kB time=00:04:15.44 bitrate=2110.0kbits/s speed=71.6x frame= 7554 fps=1791 q=-1.0 size= 77568kB time=00:05:02.12 bitrate=2103.3kbits/s speed=71.6x frame= 9082 fps=1872 q=-1.0 size= 93440kB time=00:06:03.24 bitrate=2107.3kbits/s speed=74.9x frame=10205 fps=1907 q=-1.0 size= 106240kB time=00:06:48.16 bitrate=2132.3kbits/s speed=76.3x frame=11402 fps=1915 q=-1.0 size= 119040kB time=00:07:36.04 bitrate=2138.4kbits/s speed=76.6x frame=12441 fps=1904 q=-1.0 size= 130816kB time=00:08:17.60 bitrate=2153.6kbits/s speed=76.2x frame=13704 fps=1895 q=-1.0 size= 143360kB time=00:09:08.12 bitrate=2142.6kbits/s speed=75.8x frame=15482 fps=1974 q=-1.0 size= 155392kB time=00:10:19.24 bitrate=2055.7kbits/s speed=78.9x frame=16800 fps=1968 q=-1.0 size= 171776kB time=00:11:11.96 bitrate=2094.2kbits/s speed=78.7x frame=17882 fps=1969 q=-1.0 size= 184576kB time=00:11:55.24 bitrate=2114.0kbits/s speed=78.8x frame=19003 fps=1978 q=-1.0 size= 196864kB time=00:12:40.08 bitrate=2121.8kbits/s speed=79.1x frame=19961 fps=1945 q=-1.0 size= 208640kB time=00:13:18.40 bitrate=2140.8kbits/s speed=77.8x frame=21190 fps=1968 q=-1.0 size= 221952kB time=00:14:07.56 bitrate=2145.3kbits/s speed=78.7x frame=22587 fps=1975 q=-1.0 size= 237312kB time=00:15:03.44 bitrate=2151.8kbits/s speed= 79x frame=23755 fps=1981 q=-1.0 size= 250368kB time=00:15:50.16 bitrate=2158.6kbits/s speed=79.3x frame=25377 fps=2023 q=-1.0 size= 261888kB time=00:16:55.04 bitrate=2113.6kbits/s speed=80.9x frame=26603 fps=2029 q=-1.0 size= 273664kB time=00:17:44.08 bitrate=2106.8kbits/s speed=81.2x frame=27710 fps=2032 q=-1.0 size= 286208kB time=00:18:28.36 bitrate=2115.4kbits/s speed=81.3x frame=28823 fps=2033 q=-1.0 size= 298240kB time=00:19:12.88 bitrate=2119.2kbits/s speed=81.3x frame=29824 fps=2030 q=-1.0 size= 310784kB time=00:19:52.92 bitrate=2134.2kbits/s speed=81.2x frame=30836 fps=2023 q=-1.0 size= 323072kB time=00:20:33.40 bitrate=2145.8kbits/s speed=80.9x frame=31882 fps=2025 q=-1.0 size= 334592kB time=00:21:15.24 bitrate=2149.4kbits/s speed= 81x frame=32867 fps=2018 q=-1.0 size= 343296kB time=00:21:54.64 bitrate=2139.2kbits/s speed=80.7x frame=34049 fps=2019 q=-1.0 size= 356352kB time=00:22:41.92 bitrate=2143.5kbits/s speed=80.7x frame=35526 fps=2020 q=-1.0 size= 368896kB time=00:23:41.00 bitrate=2126.7kbits/s speed=80.8x frame=36845 fps=2029 q=-1.0 size= 380160kB time=00:24:33.76 bitrate=2113.1kbits/s speed=81.2x frame=37992 fps=2023 q=-1.0 size= 392448kB time=00:25:19.64 bitrate=2115.6kbits/s speed=80.9x frame=38752 fps=1999 q=-1.0 size= 402176kB time=00:25:50.04 bitrate=2125.5kbits/s speed= 80x frame=39126 fps=1967 q=-1.0 size= 406016kB time=00:26:05.00 bitrate=2125.3kbits/s speed=78.7x frame=40142 fps=1967 q=-1.0 size= 418048kB time=00:26:45.64 bitrate=2132.9kbits/s speed=78.7x frame=41177 fps=1958 q=-1.0 size= 429824kB time=00:27:27.04 bitrate=2137.8kbits/s speed=78.3x frame=42258 fps=1962 q=-1.0 size= 442624kB time=00:28:10.28 bitrate=2145.2kbits/s speed=78.5x frame=43607 fps=1963 q=-1.0 size= 454400kB time=00:29:04.24 bitrate=2134.1kbits/s speed=78.5x frame=45079 fps=1958 q=-1.0 size= 466944kB time=00:30:03.12 bitrate=2121.4kbits/s speed=78.3x frame=46005 fps=1944 q=-1.0 size= 475392kB time=00:30:40.16 bitrate=2116.3kbits/s speed=77.7x frame=46960 fps=1923 q=-1.0 size= 486912kB time=00:31:18.36 bitrate=2123.5kbits/s speed=76.9x frame=47659 fps=1905 q=-1.0 size= 495616kB time=00:31:46.32 bitrate=2129.8kbits/s speed=76.2x frame=48678 fps=1890 q=-1.0 size= 507904kB time=00:32:27.08 bitrate=2136.9kbits/s speed=75.6x frame=49638 fps=1880 q=-1.0 size= 520448kB time=00:33:05.48 bitrate=2147.3kbits/s speed=75.2x frame=50627 fps=1882 q=-1.0 size= 529152kB time=00:33:45.04 bitrate=2140.6kbits/s speed=75.3x frame=52090 fps=1895 q=-1.0 size= 539648kB time=00:34:43.56 bitrate=2121.8kbits/s speed=75.8x frame=53081 fps=1891 q=-1.0 size= 552192kB time=00:35:23.20 bitrate=2130.5kbits/s speed=75.6x frame=54241 fps=1898 q=-1.0 size= 566528kB time=00:36:09.60 bitrate=2139.1kbits/s speed=75.9x frame=55326 fps=1895 q=-1.0 size= 577024kB time=00:36:53.00 bitrate=2136.0kbits/s speed=75.8x frame=56377 fps=1899 q=-1.0 size= 591616kB time=00:37:35.04 bitrate=2149.2kbits/s speed=75.9x frame=57543 fps=1900 q=-1.0 size= 602112kB time=00:38:21.68 bitrate=2143.0kbits/s speed= 76x frame=58634 fps=1896 q=-1.0 size= 614656kB time=00:39:05.32 bitrate=2146.9kbits/s speed=75.9x frame=60029 fps=1910 q=-1.0 size= 626688kB time=00:40:01.12 bitrate=2138.1kbits/s speed=76.4x frame=61866 fps=1931 q=-1.0 size= 642304kB time=00:41:14.60 bitrate=2126.3kbits/s speed=77.3x frame=63450 fps=1950 q=-1.0 size= 655104kB time=00:42:17.96 bitrate=2114.5kbits/s speed= 78x frame=64934 fps=1959 q=-1.0 size= 667648kB time=00:43:17.32 bitrate=2105.8kbits/s speed=78.4x frame=66515 fps=1983 q=-1.0 Lsize= 685044kB time=00:44:20.67 bitrate=2109.2kbits/s speed=79.3x video:621641kB audio:62360kB subtitle:0kB other streams:0kB global headers:0kB muxing overhead: 0.152406%
  14. same here after update. It seems to not be using GPU either. Nothing being worked on in nvidia-smi, but cpu is cranking away.
  15. It doesn't say no iommu groups available, vtd is enabled, bios updated as well (thanks for the reminder ) I got the plugin, but it only shows group 0 when building a config. I assume they're in two groups due to the way they're listed, but i'm not 100% on that. It's just so weird because it worked just a few months ago using windows and handbrake to convert videos to hevc.