melagodo

Members
  • Posts

    35
  • Joined

  • Last visited

Converted

  • Gender
    Male
  • Location
    Italy

Recent Profile Visitors

The recent visitors block is disabled and is not being shown to other users.

melagodo's Achievements

Newbie

Newbie (1/14)

7

Reputation

  1. Normal housekeeping (update dockers and plugins)
  2. just a quick update, after some days of recurring error I'm not seeing it anymore 🤨
  3. Today fix common problems started telling me about out of memory errors. I've got plenty of dockers, plugins and vms, really don't know where to start looking. Diagnostics attached hal-diagnostics-20211011-0026.zip
  4. Tried but still same problem, logs and flashing work beautifully, though I guess you need a ssl certificate, but this involves reverse proxy and so on, I'm facing the same issue with another docker which requires https (but I want to run it local only).
  5. Abount ESPHome, I'm currently running it pretty successfully (can flash my devices), but I've noticed a couple of problems: I seem to have less gui option than what I see online (maybe it's because it's running via http instead of https? colour indicator of the node doesn't work, it's always red (this bug me). Nodes have static ip, they work as intended (and I can OTA them from ESPHome dashboard). I can also ping nodename.local both whithin my LAN from other client, from Unraid console but not from docker console Thanks for the help
  6. Just for my peace of mind, wireguard port is the only one I've opened. Is it possible to access Bitwarden only within my LAN, without any access from outside?
  7. any way to change default start up time? I've set it up to daily, and it fires in the middle of the night, preventing my hdd to sleep properly (I only use server in the evening and sleep is set afeter 4 hours). Thanks!
  8. Strange problem here: my keyboard started going crazy, resulting in strange behaviour (like opening hundreds and hundreds of tabs while browsing, slow or no response even to shift key and so on). I was passing USB devices from VM template. Even with vm turned off, the keyboard spammed my unraid logs with input overrun errors caused by the usb keyboard thinking of a broken keyboard, i've changed it. Same problem with new keyboard i've tried connecting the keyboard to a PCI usb card (FL1100) which I've binded to VFIO through system devices (and then passed to vm), but problem is the same all other usb devices like mouse or usb drives work just fine (in Unraid, VMs or even dockers) created a fresh vm, but still same problem only with keyboard both keyboard work just fine on another machine Really don't know where to start troubleshooting from. Let me know if and wich logs you need. This problem started appering all of a sudden in unraid 6.8.3 and remained the same in 6.9.2. Sorry if I sound so desperate but it's literally the only thing that prevents me calling my little unraid server 'just freakin' perfect'. Thanks so much
  9. Hi everybody. I'm still using this container through browser extension (it works fine). I only use it within my lan, or at the most while I'm connected through a VPN. Not really want (or have necessity) to open any port and expose it to the internet. I can't, however, access the admin page for managing users and collection: it requires HTTPS. I've read about using reverse proxy, but don't know anything about it (since, again, I just use a VPN). Can somebody make a noobie proof guide for setting it up for local access only?
  10. That's the problem, log just says "LOG:", I've copied and pasted all the info that I'm seeing. You've already given a lot to the community with this wonderful docker and I'll surely become a Patreon for help with this specific issue (as I've stated, unmanic worked without any problem with all my tv library except this serie). Thanks again for you're wonderful work
  11. Ok, i've been able to run staging build (had to delete db and restart container). I've tried again with "Remove subtitles" option unchecked, but job immediatly fails COMMAND: ffmpeg -i /library/tv/Sailor moon test/test.mkv -hide_banner -loglevel info -strict -2 -max_muxing_queue_size 512 -map 0:0 -map 0:1 -map 0:2 -map 0:3 -map 0:4 -c:v:0 libx265 -c:a:0 copy -c:a:1 copy -c:s:0 srt -c:s:1 srt -y /tmp/unmanic/unmanic_file_conversion-1619260598.1641102/test-1619260598.1641166-WORKING-1.mkv LOG: Happy to help you sort this out with any kind of testing!
  12. Did this just start happening today? Yes, sir. Running 6.8.3 with default docker settings.
  13. I've tried installing staging build, but my system become unresponsive right after docker starting up and I have to kill the process
  14. That would be awesome. I keep trying digging into FFMPEG secrets, but not really going anywhere. Strange thing is that source file is already a mkv. Here's full FFMPEG log. I know this goes way beyond unmanic support, but if you can help me or give me a hint... I might as well go with Handbrake route, just trying to understand what's happening under the hood for future similar problems. Thanks again mate Input #0, matroska,webm, from '/library/movies/Sailor Moon.1x01.(1) [DVDRip AC3 ITA JAP Sub ITA MKV By FaTTi BeNe TeAM].mkv': Metadata: title : By FaTTi BeNe TeAM encoder : libebml v1.3.3 + libmatroska v1.4.4 creation_time : 2016-06-01T16:10:36.000000Z Duration: 00:24:28.28, start: 0.080000, bitrate: 1952 kb/s Chapter #0:0: start 0.000000, end 92.840000 Metadata: title : Chapter 1 Chapter #0:1: start 92.920000, end 694.200000 Metadata: title : Chapter 2 Chapter #0:2: start 694.280000, end 1326.160000 Metadata: title : Chapter 3 Chapter #0:3: start 1326.240000, end 1417.000000 Metadata: title : Chapter 4 Chapter #0:4: start 1417.080000, end 1447.720000 Metadata: title : Chapter 5 Chapter #0:5: start 1447.800000, end 1468.280000 Metadata: title : Chapter 6 Stream #0:0(jpn): Video: h264, yuv420p(tv, smpte170m/bt470bg/bt709, progressive), 640x480, SAR 1:1 DAR 4:3, 25 fps, 25 tbr, 1k tbn, 50 tbc (default) Metadata: title : By FaTTi BeNe TeAM BPS : 1499865 BPS-eng : 1499865 DURATION : 00:24:28.280000000 DURATION-eng : 00:24:28.280000000 NUMBER_OF_FRAMES: 36707 NUMBER_OF_FRAMES-eng: 36707 NUMBER_OF_BYTES : 275277827 NUMBER_OF_BYTES-eng: 275277827 _STATISTICS_WRITING_APP: mkvmerge v9.2.0 ('Photograph') 64bit _STATISTICS_WRITING_APP-eng: mkvmerge v9.2.0 ('Photograph') 64bit _STATISTICS_WRITING_DATE_UTC: 2016-06-01 16:10:36 _STATISTICS_WRITING_DATE_UTC-eng: 2016-06-01 16:10:36 _STATISTICS_TAGS: BPS DURATION NUMBER_OF_FRAMES NUMBER_OF_BYTES _STATISTICS_TAGS-eng: BPS DURATION NUMBER_OF_FRAMES NUMBER_OF_BYTES Stream #0:1(ita): Audio: ac3, 48000 Hz, stereo, fltp, 224 kb/s (default) Metadata: title : Italiano BPS : 224000 BPS-eng : 224000 DURATION : 00:24:28.192000000 DURATION-eng : 00:24:28.192000000 NUMBER_OF_FRAMES: 45881 NUMBER_OF_FRAMES-eng: 45881 NUMBER_OF_BYTES : 41109376 NUMBER_OF_BYTES-eng: 41109376 _STATISTICS_WRITING_APP: mkvmerge v9.2.0 ('Photograph') 64bit _STATISTICS_WRITING_APP-eng: mkvmerge v9.2.0 ('Photograph') 64bit _STATISTICS_WRITING_DATE_UTC: 2016-06-01 16:10:36 _STATISTICS_WRITING_DATE_UTC-eng: 2016-06-01 16:10:36 _STATISTICS_TAGS: BPS DURATION NUMBER_OF_FRAMES NUMBER_OF_BYTES _STATISTICS_TAGS-eng: BPS DURATION NUMBER_OF_FRAMES NUMBER_OF_BYTES Stream #0:2(jpn): Audio: ac3, 48000 Hz, stereo, fltp, 224 kb/s Metadata: title : Giapponese BPS : 224000 BPS-eng : 224000 DURATION : 00:24:28.192000000 DURATION-eng : 00:24:28.192000000 NUMBER_OF_FRAMES: 45881 NUMBER_OF_FRAMES-eng: 45881 NUMBER_OF_BYTES : 41109376 NUMBER_OF_BYTES-eng: 41109376 _STATISTICS_WRITING_APP: mkvmerge v9.2.0 ('Photograph') 64bit _STATISTICS_WRITING_APP-eng: mkvmerge v9.2.0 ('Photograph') 64bit _STATISTICS_WRITING_DATE_UTC: 2016-06-01 16:10:36 _STATISTICS_WRITING_DATE_UTC-eng: 2016-06-01 16:10:36 _STATISTICS_TAGS: BPS DURATION NUMBER_OF_FRAMES NUMBER_OF_BYTES _STATISTICS_TAGS-eng: BPS DURATION NUMBER_OF_FRAMES NUMBER_OF_BYTES Stream #0:3(ita): Subtitle: dvd_subtitle, 720x576 Metadata: title : Italiano (Dialoghi) BPS : 2305 BPS-eng : 2305 DURATION : 00:24:27.103000000 DURATION-eng : 00:24:27.103000000 NUMBER_OF_FRAMES: 281 NUMBER_OF_FRAMES-eng: 281 NUMBER_OF_BYTES : 422712 NUMBER_OF_BYTES-eng: 422712 _STATISTICS_WRITING_APP: mkvmerge v9.2.0 ('Photograph') 64bit _STATISTICS_WRITING_APP-eng: mkvmerge v9.2.0 ('Photograph') 64bit _STATISTICS_WRITING_DATE_UTC: 2016-06-01 16:10:36 _STATISTICS_WRITING_DATE_UTC-eng: 2016-06-01 16:10:36 _STATISTICS_TAGS: BPS DURATION NUMBER_OF_FRAMES NUMBER_OF_BYTES _STATISTICS_TAGS-eng: BPS DURATION NUMBER_OF_FRAMES NUMBER_OF_BYTES Stream #0:4(ita): Subtitle: dvd_subtitle, 720x576 (default) Metadata: title : Italiano (Cartelli) BPS : 262 BPS-eng : 262 DURATION : 00:24:27.103000000 DURATION-eng : 00:24:27.103000000 NUMBER_OF_FRAMES: 28 NUMBER_OF_FRAMES-eng: 28 NUMBER_OF_BYTES : 48102 NUMBER_OF_BYTES-eng: 48102 _STATISTICS_WRITING_APP: mkvmerge v9.2.0 ('Photograph') 64bit _STATISTICS_WRITING_APP-eng: mkvmerge v9.2.0 ('Photograph') 64bit _STATISTICS_WRITING_DATE_UTC: 2016-06-01 16:10:36 _STATISTICS_WRITING_DATE_UTC-eng: 2016-06-01 16:10:36 _STATISTICS_TAGS: BPS DURATION NUMBER_OF_FRAMES NUMBER_OF_BYTES _STATISTICS_TAGS-eng: BPS DURATION NUMBER_OF_FRAMES NUMBER_OF_BYTES Stream mapping: Stream #0:0 -> #0:0 (h264 (native) -> hevc (libx265)) Stream #0:1 -> #0:1 (copy) Stream #0:2 -> #0:2 (copy) Stream #0:3 -> #0:3 (dvd_subtitle (dvdsub) -> subrip (srt)) Stream #0:4 -> #0:4 (dvd_subtitle (dvdsub) -> subrip (srt)) Subtitle encoding currently only possible from text to text or bitmap to bitmap
  15. I've tried searching a bit before posting. I'm not running any custom FFMPEG command, so I was wondering if Unmanic is trying to alter subtitle format by itself or what (I've already used it for different files with subtitles without any problem).